Достать ножи: Стеклянная луковица

MVO

Добыча

Дубляж

Уэнсдэй

1 сезон

Тор

Дубляж

13 клиническая

1 сезон

Жестокая ночь

MVO

Одни из нас

1 сезон

Deluxe

pack

Рекомендуем

30

Пиратка

ВАЖНО

ВАЖНО

Ghostwire

Пиратка

jed

RePack

nioh2

RePack

RDR2

RePack

NEED FOR SPEED™ PAYBACK

RePack

скачать торрент

Кинопоиск HD

Острые козырьки 6 сезон

6 сезон

FAR CRY 6

RePack

скачать торрент

Лицензия

скачать торрент

MVO

1

1 сезон

скачать торрент

1 сезон

скачать торрент

Лицензия

  

Анализируй то / Analyze That (Харольд Рэмис /Harold Ramis) [2002 г., Комедия, Криминал, BDRip 720p / 60 FPS, Дубляж (Russian [rus] (aac he-aac)]

Анализируй то через торрент 02qe.vidak.icu

Раздают: 3 [ 0 KB/s ] Качают: 2 [ 0 KB/s ]
Размер: 2.72 GB | Добавлен: 4 д. назад | Торрент скачан:16 раз
Смотреть онлайн | Скачать | Поддержите нас   

15-06-2020 10:34 Анализируй то Скачать торрент  

Анализируй то / Analyze That
Год выпуска: 2002
Страна: США
Жанр: Комедия, Криминал
Продолжительность: 01:35:47
Перевод: Дубляж [Russian [rus] (aac he-aac)
Субтитры: русские, английские

Режиссер: Харольд Рэмис /Harold Ramis/

Бюджет: $60 000 000
Премьера в мире: 6 декабря 2002

rating

В ролях: Роберт Де Ниро /Robert De Niro/, Билли Кристал /Billy Crystal/, Лиза Кудроу /Lisa Kudrow/, Джо Витерелли /Joe Viterelli/, Кэти Мориарти /Cathy Moriarty/, Джои Диаз /Joey Diaz/, Джером Лепаж /Jerome LePage/, Джозеф Боно /Joseph Bono/, Томас Розалес мл. /Thomas Rosales Jr./, ...

Описание: Сиквел неожиданно успешной комедии 1999 года с теми же актерами и персонажами, с тем же режиссером. В начале фильма Пол Витти, крестный отец мафии, сидит в тюрьме. Он не в самом лучшем психическом состоянии, ему нужна помощь психоаналитика доктора Бена Собеля.
Однако ирония в том, что психоаналитик теперь нужен и самому Собелю — после смерти отца на него свалился семейный бизнес, и он пребывает в жутком стрессе. Тем временем, Витти выходит на свободу и пытается приспособиться к жизни вне мафии — поступает на телевидение, где консультирует передачи… о мафии.

Качество: BDRip 720p / 60 FPS
Формат: MKV
Видео кодек: H.264
Аудио кодек: AAC
Видео: x264, 1272 x 720 ( 16:9 ), 4000 kbps, 59,940 fps, ( 0.074 bpp)
Аудио#1: Русский, AAC, 48.0 KHz, 2 ch, 64,0 Kbps
скриншот   скриншот   скриншот   скриншот  

Общее
Уникальный идентификатор : 250929642475852722851812878539359159726 (0xBCC74A8E90881655B2F4AE39A4B685AE)
Полное имя : Z:\На заливку\Анализируй то.2002.BDRip.720p.(60Fps).mkv
Формат : Matroska
Версия формата : Version 4
Размер файла : 2,72 Гбайт
Продолжительность : 1 ч. 35 м.
Общий поток : 4 064 Кбит/сек
Название фильма : Анализируй то.2002.BDRip.720p.(60Fps)
Дата кодирования : UTC 2020-06-07 06:33:12
Программа кодирования : mkvmerge v7.2.0 ('On Every Street') 64bit built on Sep 13 2014 15:52:10
Библиотека кодирования : libebml v1.3.0 + libmatroska v1.4.1

Видео
Идентификатор : 1
Формат : AVC
Формат/Информация : Advanced Video Codec
Профиль формата : [email protected]
Настройки формата : CABAC / 8 Ref Frames
Параметр CABAC формата : Да
Параметр RefFrames формата : 8 кадров
Идентификатор кодека : V_MPEG4/ISO/AVC
Продолжительность : 1 ч. 35 м.
Битрейт : 4 000 Кбит/сек
Ширина : 1 272 пикселя
Высота : 720 пикселей
Соотношение сторон : 16:9
Режим частоты кадров : Постоянный
Частота кадров : 59,940 кадров/сек
Цветовое пространство : YUV
Субдискретизация насыщенности : 4:2:0
Битовая глубина : 8 бит
Тип развёртки : Прогрессивная
Бит/(Пиксели*Кадры) : 0.074
Размер потока : 2,67 Гбайт (98%)
Библиотека кодирования : x264 core 148 r2638 7599210
Настройки программы : cabac=1 / ref=8 / deblock=1:0:0 / analyse=0x3:0x113 / me=umh / subme=9 / psy=1 / psy_rd=1.00:0.10 / mixed_ref=1 / me_range=32 / chroma_me=1 / trellis=2 / 8x8dct=1 / cqm=0 / deadzone=21,11 / fast_pskip=0 / chroma_qp_offset=-3 / threads=6 / lookahead_threads=1 / sliced_threads=0 / nr=0 / decimate=1 / interlaced=0 / bluray_compat=0 / constrained_intra=0 / bframes=16 / b_pyramid=2 / b_adapt=2 / b_bias=0 / direct=3 / weightb=1 / open_gop=0 / weightp=2 / keyint=250 / keyint_min=25 / scenecut=40 / intra_refresh=0 / rc_lookahead=40 / rc=2pass / mbtree=1 / bitrate=4000 / ratetol=1.0 / qcomp=0.60 / qpmin=0 / qpmax=69 / qpstep=4 / cplxblur=20.0 / qblur=0.5 / vbv_maxrate=14000 / vbv_bufsize=14000 / nal_hrd=none / filler=0 / ip_ratio=1.40 / aq=1:1.00
Язык : English
Default : Да
Forced : Нет

Аудио
Идентификатор : 2
Формат : AAC LC SBR
Формат/Информация : Advanced Audio Codec Low Complexity with Spectral Band Replication
Коммерческое название : HE-AAC
Настройки формата : Explicit
Идентификатор кодека : A_AAC-2
Продолжительность : 1 ч. 35 м.
Битрейт : 64,0 Кбит/сек
Каналы : 2 канала
Channel layout : L R
Частота : 48,0 КГц
Частота кадров : 23,438 кадра/сек (2048 SPF)
Метод сжатия : С потерями
Задержка видео : 31 мс.
Размер потока : 43,8 Мбайт (2%)
Язык : Russian
Default : Нет
Forced : Нет

Текст #1
Идентификатор : 3
Формат : UTF-8
Идентификатор кодека : S_TEXT/UTF8
Идентификатор кодека/Информация : UTF-8 Plain Text
Продолжительность : 1 ч. 33 м.
Битрейт : 134 бит/сек
Count of elements : 1445
Размер потока : 92,1 Кбайт (0%)
Заголовок : русские с Blu-Ray
Язык : Russian
Default : Нет
Forced : Нет

Текст #2
Идентификатор : 4
Формат : UTF-8
Идентификатор кодека : S_TEXT/UTF8
Идентификатор кодека/Информация : UTF-8 Plain Text
Продолжительность : 1 ч. 33 м.
Битрейт : 130 бит/сек
Count of elements : 1312
Размер потока : 89,6 Кбайт (0%)
Заголовок : русские с DVD
Язык : Russian
Default : Нет
Forced : Нет

Текст #3
Идентификатор : 5
Формат : UTF-8
Идентификатор кодека : S_TEXT/UTF8
Идентификатор кодека/Информация : UTF-8 Plain Text
Продолжительность : 1 ч. 33 м.
Битрейт : 93 бит/сек
Count of elements : 1548
Размер потока : 63,9 Кбайт (0%)
Заголовок : английские
Язык : English
Default : Нет
Forced : Нет

Меню
00:00:00.000 : en:Two Hits
00:04:10.250 : en:Not a Good Time
00:06:21.298 : en:Shiv and a Song
00:07:20.523 : en:Calling Dr. Sobel
00:11:20.847 : en:Weasels to Midgits
00:14:14.353 : en:You're Responsible
00:17:15.785 : en:Gasoline on a Fire
00:20:07.915 : en:Not a Good Start
00:24:25.381 : en:Cowboy Boss
00:30:50.724 : en:Lady Boss
00:35:23.455 : en:Here's the Manager
00:39:10.181 : en:Performance Anxiety
00:42:20.371 : en:Unfiltered
00:46:37.545 : en:You Got Me There
00:48:47.258 : en:Mob on the Job
00:53:02.054 : en:No Stromboni
00:55:33.038 : en:Visitors to the Set
01:00:05.519 : en:Ben Hangs Out
01:02:11.686 : en:Chased and Screwed
01:06:24.564 : en:Character Actor
01:08:28.229 : en:Change for a 20
01:11:38.169 : en:In Is Better
01:14:33.636 : en:Lifting the Gold
01:18:33.459 : en:Letting Go With a Hug
01:22:04.461 : en:Anger Management
01:23:14.823 : en:Battling Bullhorns
01:26:37.442 : en:Happy Ending
01:30:33.428 : en:Outtake End Credits




Скачать Анализируй то через торрент https://pic1.kartinco.top/images/12/1tkra.jpg Скачать, смотреть онлайн Анализируй то бесплантно в хорошем качестве Описание: Сиквел неожиданно успешной комедии 1999 года с теми же актерами и персонажами, с тем же режиссером. В начале фильма Пол Витти, ... 10 10 2
Торрент: Зарегистрирован [2023-01-23 10:03] · скачан: 16 раз
Статус: не проверено
Размер: 2.72 GB
Как cкачать? Как скачать Анализируй то через торрент | UTorrent

% Раздел Тема Автор DL S | L
Фильмы до 2000 г. [ 1.41 GB ] Анализируй это / Analyze This | DUB | BDRip killermax2013 Скачать
1 | 2

28-11-2019 20:33  


Отключить вcю реклaмy на сайте, в т.ч. и в плеере онлайн просмотра!

    Дорогой пользователь! Огромная просьба, поблагодарите релизера, оцените раздачу и оставьте свои комментарий, если Вы скачали Анализируй то через торрент бесплатно!!
    Комментировать посты могут только пользователи прошедшие не сложную регистрацию
    Показать сообщения:    


    Анализируй то через торрент
    Скачать бесплатно Анализируй то
    Анализируй то скачать торрент
    Анализируй то смотреть онлайн
    Cкачать фильм Анализируй то бесплатно
    Анализируй то скачать торрент в хорошем качестве
    Анализируй то смотреть онлайн бесплатно в хорошем качестве
    Вы не можете начинать темы
    Вы не можете отвечать на сообщения
    Вы не можете редактировать свои сообщения
    Вы не можете удалять свои сообщения
    Вы не можете голосовать в опросах
    Вы не можете прикреплять файлы к сообщениям
    Вы можете скачивать файлы
    Анализируй то / Analyze That [2002 г., Комедия, Криминал, BDRip 720p / 60 FPS, Дубляж ] смотреть онлайн, скачать торрент picoco.icu