Достать ножи: Стеклянная луковица

MVO

Добыча

Дубляж

Уэнсдэй

1 сезон

Тор

Дубляж

13 клиническая

1 сезон

Жестокая ночь

MVO

Одни из нас

1 сезон

Deluxe

pack

Рекомендуем

30

Пиратка

ВАЖНО

ВАЖНО

Ghostwire

Пиратка

jed

RePack

nioh2

RePack

RDR2

RePack

NEED FOR SPEED™ PAYBACK

RePack

скачать торрент

Кинопоиск HD

Острые козырьки 6 сезон

6 сезон

FAR CRY 6

RePack

скачать торрент

Лицензия

скачать торрент

MVO

1

1 сезон

скачать торрент

1 сезон

скачать торрент

Лицензия

  

Чёрная Пантера: Ваканда навеки / Black Panther: Wakanda Forever (Райан Куглер) [2022, Фантастика, боевик, драма, TS-AVC] Дубляж [TS]

Чёрная Пантера: Ваканда навеки через торрент 02qe.vidak.icu

Раздают: 146 [ 3 MB/s ] Качают: 22 [ 666 KB/s ]
Размер: 2.9 GB | Добавлен: 1 мес. 27 д. назад | Торрент скачан:766 раз
Смотреть онлайн | Скачать | Поддержите нас   

30-11-2022 16:55 Чёрная Пантера: Ваканда навеки Скачать торрент  

Чёрная Пантера: Ваканда навеки
Black Panther: Wakanda Forever

Год выпуска: 2022
Страна: США
Выпущено: Marvel Studios, Walt Disney Pictures
Жанр: Фантастика, боевик, драма
Продолжительность: 02:33:58
Перевод: Дублированный | TS
Субтитры: Русские (Forced), английские (Full, Forced)

Режиссер: Райан Куглер

rating

В ролях: Теноч Уэрта, Анджела Бассетт, Данай Гурира, Летишиа Райт, Лупита Нионго, Лейк Белл, Мартин Фриман, Флоренс Касумба, Микейла Коэл, Доминик Торнилия

Описание: После смерти короля Т`Чаллы королева Рамонда, Шури, М`Баку, Окойе и Дора Милаж сражаются, чтобы защитить Ваканду от мировых держав.

Качество: TS-AVC
Формат: MKV

Видео: MPEG-4 AVC, 2247 Kb/s, 1152x469
Аудио #1: Russian: 48 kHz, AC3 Dolby Digital, 2/0 (L, R) ch, ~224 Kbps | Дубляж | TS
Аудио #2: English: 48 kHz, AC3 Dolby Digital, 2/0 (L, R) ch, ~224 Kbps | Original
скриншот  скриншот  скриншот  скриншот  скриншот  скриншот  

Complete name : Black.Panther.Wakanda.Forever.2022.TS.Rus.Дубляж.DD.2.0.mkv
Format : Matroska
Format version : Version 4 / Version 2
File size : 2.90 GiB
Duration : 2 h 33 min
Overall bit rate : 2 697 kb/s
Encoded date : UTC 2022-11-29 07:43:41
Writing application : mkvmerge v65.0.0 ('Too Much') 64-bit
Writing library : libebml v1.4.2 + libmatroska v1.6.4

Video
ID : 1
Format : AVC
Format/Info : Advanced Video Codec
Format profile : [email protected]
Format settings : CABAC / 16 Ref Frames
Format settings, CABAC : Yes
Format settings, ReFrames : 16 frames
Codec ID : V_MPEG4/ISO/AVC
Duration : 2 h 33 min
Bit rate : 2 247 kb/s
Width : 1 152 pixels
Height : 496 pixels
Display aspect ratio : 2.35:1
Frame rate mode : Constant
Frame rate : 24.000 FPS
Color space : YUV
Chroma subsampling : 4:2:0
Bit depth : 8 bits
Scan type : Progressive
Bits/(Pixel*Frame) : 0.164
Stream size : 2.42 GiB (83%)
Title : Black Panther Wakanda Forever 2022
Writing library : x264 core 148 r2638 7599210
Encoding settings : cabac=1 / ref=16 / deblock=1:0:0 / analyse=0x3:0x113 / me=umh / subme=10 / psy=1 / psy_rd=1.00:0.00 / mixed_ref=1 / me_range=32 / chroma_me=1 / trellis=2 / 8x8dct=1 / cqm=0 / deadzone=21,11 / fast_pskip=1 / chroma_qp_offset=-2 / threads=12 / lookahead_threads=3 / sliced_threads=0 / nr=0 / decimate=1 / interlaced=0 / bluray_compat=0 / constrained_intra=0 / bframes=16 / b_pyramid=2 / b_adapt=2 / b_bias=0 / direct=3 / weightb=1 / open_gop=0 / weightp=2 / keyint=250 / keyint_min=24 / scenecut=40 / intra_refresh=0 / rc_lookahead=60 / rc=2pass / mbtree=1 / bitrate=2247 / ratetol=1.0 / qcomp=0.60 / qpmin=0 / qpmax=69 / qpstep=4 / cplxblur=20.0 / qblur=0.5 / ip_ratio=1.40 / aq=1:1.00
Language : English
Default : Yes
Forced : No
Color range : Limited
Color primaries : BT.709
Transfer characteristics : BT.709
Matrix coefficients : BT.709

Audio #1
ID : 2
Format : AC-3
Format/Info : Audio Coding 3
Codec ID : A_AC3
Duration : 2 h 33 min
Bit rate mode : Constant
Bit rate : 224 kb/s
Channel(s) : 2 channels
Channel positions : Front: L R
Sampling rate : 48.0 kHz
Frame rate : 31.250 FPS (1536 SPF)
Bit depth : 16 bits
Compression mode : Lossy
Stream size : 247 MiB (8%)
Title : Rus. Дубляж. TS. 2.0. 224
Language : Russian
Service kind : Complete Main
Default : Yes
Forced : No

Audio #2
ID : 3
Format : AC-3
Format/Info : Audio Coding 3
Codec ID : A_AC3
Duration : 2 h 33 min
Bit rate mode : Constant
Bit rate : 224 kb/s
Channel(s) : 2 channels
Channel positions : Front: L R
Sampling rate : 48.0 kHz
Frame rate : 31.250 FPS (1536 SPF)
Bit depth : 16 bits
Compression mode : Lossy
Stream size : 247 MiB (8%)
Title : Eng.
Language : English
Service kind : Complete Main
Default : No
Forced : No

Text #1
ID : 4
Format : UTF-8
Codec ID : S_TEXT/UTF8
Codec ID/Info : UTF-8 Plain Text
Duration : 2 h 31 min
Bit rate : 7 b/s
Count of elements : 211
Stream size : 8.03 KiB (0%)
Title : Forsed. Ru.
Language : Russian
Default : Yes
Forced : No

Text #2
ID : 5
Format : UTF-8
Codec ID : S_TEXT/UTF8
Codec ID/Info : UTF-8 Plain Text
Duration : 2 h 31 min
Bit rate : 3 b/s
Count of elements : 190
Stream size : 4.06 KiB (0%)
Title : Forsed. Eng.
Language : English
Default : No
Forced : No

Text #3
ID : 6
Format : UTF-8
Codec ID : S_TEXT/UTF8
Codec ID/Info : UTF-8 Plain Text
Duration : 2 h 33 min
Bit rate : 49 b/s
Count of elements : 1723
Stream size : 55.5 KiB (0%)
Title : Full. Eng.
Language : English
Default : No
Forced : No




Скачать Чёрная Пантера: Ваканда навеки через торрент https://i120.fastpic.org/big/2022/1129/e9/8c6d5035cb8d0a4be8775d41c9f253e9.jpg Скачать, смотреть онлайн Чёрная Пантера: Ваканда навеки бесплантно в хорошем качестве Описание: После смерти короля Т`Чаллы королева Рамонда, Шури, М`Баку, Окойе и Дора Милаж сражаются, чтобы защитить Ваканду от мировых ... 8.6 10 28
Info! Золотая раздача, скачанное не засчитывается.
Торрент: Зарегистрирован [2022-11-30 16:55] · скачан: 766 раз
Статус: T временная
Размер: 2.9 GB
Как cкачать? Как скачать Чёрная Пантера: Ваканда навеки через торрент | UTorrent




Последний раз редактировалось: bober100 (2023-01-03 18:28), всего редактировалось 1 раз

28-11-2019 20:33  


Отключить вcю реклaмy на сайте, в т.ч. и в плеере онлайн просмотра!

01-12-2022 10:32 Чёрная Пантера: Ваканда навеки Скачать торрент  

Ну вот откуда рейтинг то 6,8. Ну неужеле фильм настолько бомбический что на семерку рейтинга дотянул? Вот чем скоморошнее и комикснее, абсурднее фильм... Чем больше ПУСТЫХ, графических красивостей, тем выше рейтинг, как на дрожжах. Вот скажите мне посмотревшие, там бомбический сюжет и игра актеров? Я прямо провалюсь в драму Ваканды?



01-12-2022 14:32 Чёрная Пантера: Ваканда навеки Скачать торрент  

Кто посмотрел, скажите как картинка и звук? Смотреть в таком качестве можно?



01-12-2022 18:42 Чёрная Пантера: Ваканда навеки Скачать торрент  

А сэмпл глянуть вероисповедание не позволяет?



02-12-2022 16:50 Чёрная Пантера: Ваканда навеки Скачать торрент  

SvetaM77, Это экранка! В сэпле весь филь НЕ увидишь, в экранках как картинка, так и звук может меняться на протяжении всего фильма, как в лучшую, так и худшую сторону. Хотя, может ты не знал... ))



02-12-2022 16:57 Чёрная Пантера: Ваканда навеки Скачать торрент  

Глянул. Качество картинки и звука вполне нормальное для ознакомительного просмотра, если б еще не двоилась временами... Да перевод в некоторых сценах не полный. Сам фильм, как по мне, несколько затянут, хотя, для любителей кинокомиксов - это скорее в плюс... )



03-12-2022 06:35 Чёрная Пантера: Ваканда навеки Скачать торрент  

стар я уж для таких сказок ..



07-12-2022 15:54 Чёрная Пантера: Ваканда навеки Скачать торрент  

а мы чёрные люди одарённые - более расийской хрени против темнокожих не слышал)
.
фильм такая вода водяная, даже до первой пантеры ей как до луны
а первая часть тоже была не фонтан, но там хоть злодеи присутствовали



11-12-2022 21:49 Чёрная Пантера: Ваканда навеки Скачать торрент  

это конечно моё личное мнение, но Марвел со своей "повесточкой" скатывается всё ниже и ниже. Очень хочется верить, что со сменой руководства политика у них изменится, но это не точно.(((



03-01-2023 17:59 Чёрная Пантера: Ваканда навеки Скачать торрент  

Нормальный фильм



    Дорогой пользователь! Огромная просьба, поблагодарите релизера, оцените раздачу и оставьте свои комментарий, если Вы скачали Чёрная Пантера: Ваканда навеки через торрент бесплатно!!
    Комментировать посты могут только пользователи прошедшие не сложную регистрацию
    Показать сообщения:    


    Чёрная Пантера: Ваканда навеки через торрент
    Скачать бесплатно Чёрная Пантера: Ваканда навеки
    Чёрная Пантера: Ваканда навеки скачать торрент
    Чёрная Пантера: Ваканда навеки смотреть онлайн
    Cкачать фильм Чёрная Пантера: Ваканда навеки бесплатно
    Чёрная Пантера: Ваканда навеки скачать торрент в хорошем качестве
    Чёрная Пантера: Ваканда навеки смотреть онлайн бесплатно в хорошем качестве
    Вы можете начинать темы
    Вы можете отвечать на сообщения
    Вы не можете редактировать свои сообщения
    Вы не можете удалять свои сообщения
    Вы не можете голосовать в опросах
    Вы не можете прикреплять файлы к сообщениям
    Вы можете скачивать файлы
    Чёрная Пантера: Ваканда навеки / Black Panther: Wakanda Forever [2022, Фантастика, боевик, драма, TS-AVC] Дубляж [TS] смотреть онлайн, скачать торрент picoco.icu