Достать ножи: Стеклянная луковица

MVO

Добыча

Дубляж

Уэнсдэй

1 сезон

Тор

Дубляж

13 клиническая

1 сезон

Жестокая ночь

MVO

Одни из нас

1 сезон

Deluxe

pack

Рекомендуем

30

Пиратка

ВАЖНО

ВАЖНО

Ghostwire

Пиратка

jed

RePack

nioh2

RePack

RDR2

RePack

NEED FOR SPEED™ PAYBACK

RePack

скачать торрент

Кинопоиск HD

Острые козырьки 6 сезон

6 сезон

FAR CRY 6

RePack

скачать торрент

Лицензия

скачать торрент

MVO

1

1 сезон

скачать торрент

1 сезон

скачать торрент

Лицензия

  

Стрим / Сезон: 1 / Серии: 1-20 из 20 (Рустам Ильясов) [2022, Комедия, WEBRip 1080p]

Стрим через торрент 02qe.vidak.icu

Раздают: 19 [ 24 MB/s ] Качают: 39 [ 10 MB/s ]
Размер: 14.81 GB | Добавлен: 14 ч. назад | Торрент скачан:22 раза
Смотреть онлайн | Скачать | Поддержите нас   

09-01-2023 18:39 Стрим Скачать торрент  

Стрим
Год выпуска: 2022
Страна: Россия
Жанр: Комедия
Продолжительность: ~ 00:25:00 серия
Перевод: Не требуется
Субтитры: отсутствуют

Режиссер: Рустам Ильясов

rating

В ролях: Денис Власенко, Александра Дроздова, Тимофей Елецкий, Александра Урсуляк, Семён Штейнберг, Софья Райзман, Антон Филипенко, Александр Семчев, Алексей Маклаков, Ольга Дибцева, Иван Добронравов, Ольга Тумайкина, Иван Агапов, Дмитрий Журавлёв (IV), Елизавета Запорожец

Описание: Жора только что вместе с родителями переехал в другой город, где никак не может наладить отношения с одноклассниками, да и учителя к нему откровенно придираются. Устав терпеть тотальную несправедливость, Жора решает с ней бороться, причём нестандартным образом: школьник надевает на голову шлем с вмонтированной в него камерой и начинает транслировать в интернет всё, что видит дома и в школе.
Одноклассники тут же поднимают его на смех. Учителя и директор школы тоже не в восторге от этой затеи: ведь теперь буквально все могут стать свидетелями некомпетентности, халатности и коррупции, царящих в этом учебном заведении. Но Жора именно этого и добивается. Он хочет, чтобы все теперь видели, как ужасно ведут себя его одноклассники, и как безалаберно относятся к своим обязанностям сотрудники школы. Со временем он превращается в местного супергероя по прозвищу «Стрим», но справится ли он с большой ответственностью, которая приходит вместе с большой силой?

Качество: WEBRip 1080p
Формат: MKV

Видео: MPEG-4 AVC, 1920x816, ~ 4500 Кбит/с, 0.087 bit/pixel, 25 Кадр/с
Аудио: 48.0 kHz, AC3 Dolby Digital, 2/0 (L,R) ch, ~ 192 kbps

Общее
Уникальный идентификатор : 112888260132458350237225048106273654271 (0x54ED7CF13B0C6E656BEC050A7024C5FF)
Полное имя : C:\Strim.S01.2022.WEBRip.1080p\Strim.S01.E01.2022.WEBRip.1080p.mkv
Формат : Matroska
Версия формата : Version 4
Размер файла : 761 Мбайт
Продолжительность : 22 м. 57 с.
Режим общего битрейта : Переменный
Общий поток : 4 635 Кбит/сек
Название фильма : Strim.S01.E01.2022.WEBRip.1080p
Дата кодирования : UTC 2023-01-09 18:31:28
Программа кодирования : mkvmerge v72.0.0 ('Minuano (Six-eight)') 64-bit
Библиотека кодирования : libebml v1.4.4 + libmatroska v1.7.1
Attachments : poster.jpg

Видео
Идентификатор : 1
Формат : AVC
Формат/Информация : Advanced Video Codec
Профиль формата : [email protected]
Настройки формата : CABAC / 2 Ref Frames
Параметр CABAC формата : Да
Параметр RefFrames формата : 2 кадра
Идентификатор кодека : V_MPEG4/ISO/AVC
Продолжительность : 22 м. 57 с.
Вид битрейта : Переменный
Битрейт : 4 436 Кбит/сек
Максимальный битрейт : 4 500 Кбит/сек
Ширина : 1 920 пикселей
Высота : 1 072 пикселя
Соотношение сторон : 16:9
Режим частоты кадров : Постоянный
Частота кадров : 25,000 кадров/сек
Цветовое пространство : YUV
Субдискретизация насыщенности : 4:2:0
Битовая глубина : 8 бит
Тип развёртки : Прогрессивная
Бит/(Пиксели*Кадры) : 0.086
Размер потока : 729 Мбайт (96%)
Default : Да
Forced : Нет
Цветовой диапазон : Limited
Основные цвета : BT.709
Характеристики трансфера : BT.709

Аудио
Идентификатор : 2
Формат : AC-3
Формат/Информация : Audio Coding 3
Коммерческое название : Dolby Digital
Идентификатор кодека : A_AC3
Продолжительность : 22 м. 57 с.
Вид битрейта : Постоянный
Битрейт : 192 Кбит/сек
Каналы : 2 канала
Channel layout : L R
Частота : 48,0 КГц
Частота кадров : 31,250 кадров/сек (1536 SPF)
Метод сжатия : С потерями
Задержка видео : -120 мс.
Размер потока : 31,5 Мбайт (4%)
Заголовок : [Original | 2.0 AC-3 Audio]
Язык : Russian
Service kind : Complete Main
Default : Да
Forced : Нет

Когда раздача ведётся путём добавления новых серий, при каждом добавлении создётся новый торрент. Чтобы начать докачку новой серии, пользователям необходимо сделать следующее:
(1) остановить скачивание,
(2) удалить старый торрент у себя из клиента (старые серии удалять не надо),
(3) скачать новый торрент и запустить его у себя в клиенте вместо старого, при этом указать клиенту путь в старую папку, куда и должно происходить скачивание новых серий.
Ваш клиент при этом должен произвести хеширование (проверку) старой папки (если не производит сам - помогите ему сделать это), и будет докачивать только те серии, которых у вас ещё нет. Старые серии при этом не удаляются, а продолжают раздаваться!
Eсли вы уже удалили старые серии, то предотвратить повторную закачку старых серий можно, отжав галочку в соответствующих местах при запуске нового торрента. По возможности, желательно не удалять старые серии как можно дольше, чтобы релизер не столько продолжал раздавать старые серии, а смог сконцентрироваться на новых.



Скачать Стрим через торрент https://i121.fastpic.org/big/2023/0109/1d/aa216b6860e900da11e454ff4803051d.jpg Скачать, смотреть онлайн Стрим бесплантно в хорошем качестве Описание: Жора только что вместе с родителями переехал в другой город, где никак не может наладить отношения с одноклассниками, да и ... 9.2 10 13
Торрент: Зарегистрирован [2023-01-27 03:43] · скачан: 22 раз
Статус: √ проверено
Размер: 14.81 GB
Как cкачать? Как скачать Стрим через торрент | UTorrent

% Раздел Тема Автор DL S | L
Сериалы ТНТ [ 5.72 GB ] Стрим / Сезон: 1 / Серии: 1-20 из 20 | | WEBRip-AVC bober100 Скачать
11 | 14
Сериалы ТНТ [ 5.87 GB ] Стрим / Сезон: 1 / Серии: 1-20 из 20 | | SATRip bober100 Скачать
18 | 25



Последний раз редактировалось: bober100 (2023-01-27 03:43), всего редактировалось 1 раз

28-11-2019 20:33  


Отключить вcю реклaмy на сайте, в т.ч. и в плеере онлайн просмотра!

24-01-2023 20:51 Стрим Скачать торрент  

серик кулл...но чет до 13 серии он не мог сам видосы удалять...а в 13 уже может....ох уж эти ляпы...



    Дорогой пользователь! Огромная просьба, поблагодарите релизера, оцените раздачу и оставьте свои комментарий, если Вы скачали Стрим через торрент бесплатно!!
    Комментировать посты могут только пользователи прошедшие не сложную регистрацию
    Показать сообщения:    


    Стрим через торрент
    Скачать бесплатно Стрим
    Стрим скачать торрент
    Стрим смотреть онлайн
    Cкачать фильм Стрим бесплатно
    Стрим скачать торрент в хорошем качестве
    Стрим смотреть онлайн бесплатно в хорошем качестве
    Вы не можете начинать темы
    Вы не можете отвечать на сообщения
    Вы не можете редактировать свои сообщения
    Вы не можете удалять свои сообщения
    Вы не можете голосовать в опросах
    Вы не можете прикреплять файлы к сообщениям
    Вы можете скачивать файлы
    Стрим / Сезон: 1 / Серии: 1-20 из 20 [2022, Комедия, WEBRip 1080p] смотреть онлайн, скачать торрент picoco.icu