Достать ножи: Стеклянная луковица

MVO

Добыча

Дубляж

Уэнсдэй

1 сезон

Тор

Дубляж

13 клиническая

1 сезон

Жестокая ночь

MVO

Одни из нас

1 сезон

Deluxe

pack

Рекомендуем

30

Пиратка

ВАЖНО

ВАЖНО

Ghostwire

Пиратка

jed

RePack

nioh2

RePack

RDR2

RePack

NEED FOR SPEED™ PAYBACK

RePack

скачать торрент

Кинопоиск HD

Острые козырьки 6 сезон

6 сезон

FAR CRY 6

RePack

скачать торрент

Лицензия

скачать торрент

MVO

1

1 сезон

скачать торрент

1 сезон

скачать торрент

Лицензия

  

Sex Trap / В паутине секса / Сексуальная ловушка / Секс-Ловушка (Antonio Adamo) [2008 г., Feature, DVD9] DVO

| Скачать | Поддержите нас   

17-01-2023 09:04 Sex Trap Скачать торрент  

Sex Trap / В паутине секса / Сексуальная ловушка / Секс-Ловушка
Год выпуска: 2008
Страна: Europe
Жанр: Feature
Продолжительность: 02:01:26
Перевод: Профессиональный (двухголосый)

Режиссер: Antonio Adamo

В ролях: Julia Taylor, Dora Venter, Nicky Angel, Morgan Moon, Sandy Cage, Kitty Saliery, Natale De Angelo

Описание: What can be better than being caught in this trap? These beautiful international ladies love catching these studs! Come join them as they show you what it's like being caught in their SEX TRAP. Cum see these hot beautiful babes undress each other and get down and dirty on film for you to enjoy!!
"Two call girls who haven't seen each other in a long time finally meet up again. One of them was made an offer of 50,000 Euros for three nights at an exclusive place with special customers. Tempted by the money, her friend agrees to join her. Little do the two girls know that they are about to step into a trap..."
Две элитных девушки по вызову, которые давно не виделись, встречаются вновь. Одна из них делает другой предложение провести 3 ночи за 50 тысяч евро в эксклюзивном месте с особыми клиентами. Искушенная деньгами, ее подруга соглашается присоединиться к ней. Догадываются ли девушки, что они в шаге от ловушки?
Интригующая история, снятая в красивых интерьерах, с шикарнейшими европейскими девушками от признанного маэстро жанра Антонио Адамо

Качество: DVD9
Формат: DVD Video
Видео кодек: MPEG2
Аудио кодек: AC3
Видео: 720x576, MPEG 2, 6845 Кбит/сек
Аудио#1: Английский, AC3, 2 ch, 192 Кбит/сек
Аудио#2: Русский, AC3, 2 ch, 192 Кбит/сек
Видео
Идентификатор : 224 (0xE0)
Формат : MPEG Video
Версия формата : Version 2
Профиль формата : [email protected]
Настройки формата : CustomMatrix / BVOP
Параметр BVOP формата : Да
Параметр матрицы формата : Выборочная
Параметр GOP формата : M=3, N=12
Продолжительность : 19 м. 24 с.
Вид битрейта : Переменный
Битрейт : 6845 Кбит/сек
Ширина : 720 пикселей
Высота : 576 пикселей
Соотношение сторон : 16:9
Частота кадров : 25,000 кадров/сек
Стандарт вещания : PAL
Цветовое пространство : YUV
Субдискретизация насыщенности : 4:2:0
Битовая глубина : 8 бит
Метод сжатия : С потерями
Бит/(Пиксели*Кадры) : 0.660
Размер потока : 950 Мбайт (93%)
Основные цвета : BT.601 PAL
Характеристики трансфера : BT.470 System B/G
Коэффициенты матрицы : BT.601

Аудио #1
Идентификатор : 189 (0xBD)-128 (0x80)
Формат : AC-3
Формат/Информация : Audio Coding 3
Коммерческое название : Dolby Digital
Режим смешивания : DVD-Video
Продолжительность : 19 м. 24 с.
Вид битрейта : Постоянный
Битрейт : 192 Кбит/сек
Каналы : 2 канала
ChannelLayout : L R
Частота : 48,0 КГц
Частота кадров : 31,250 кадров/сек (1536 SPF)
Метод сжатия : С потерями
Размер потока : 26,7 Мбайт (3%)
ServiceKind/String : Complete Main

Аудио #2
Идентификатор : 189 (0xBD)-129 (0x81)
Формат : AC-3
Формат/Информация : Audio Coding 3
Коммерческое название : Dolby Digital
Режим смешивания : DVD-Video
Продолжительность : 19 м. 24 с.
Вид битрейта : Постоянный
Битрейт : 192 Кбит/сек
Каналы : 2 канала
ChannelLayout : L R
Частота : 48,0 КГц
Частота кадров : 31,250 кадров/сек (1536 SPF)
Метод сжатия : С потерями
Размер потока : 26,7 Мбайт (3%)
ServiceKind/String : Complete Main




Торрент не зареган: Не зарегистрирован ||
Добавлен: 2023-01-17 09:02
Скачано: 0 раз
% Раздел Тема Автор DL S | L
Порно фильмы с русским переводом [ 1.36 GB ] Сексуальная Ловушка / Sex Trap | | DVDRip, DVO [email protected] Скачать
1 | 0

28-11-2019 20:33  


Отключить вcю реклaмy на сайте, в т.ч. и в плеере онлайн просмотра!

    Дорогой пользователь! Огромная просьба, поблагодарите релизера, оцените раздачу и оставьте свои комментарий, если Вы скачали Sex Trap через торрент бесплатно!!
    Комментировать посты могут только пользователи прошедшие не сложную регистрацию
    Показать сообщения:    


    Sex Trap через торрент
    Скачать бесплатно Sex Trap
    Sex Trap скачать торрент
    Sex Trap смотреть онлайн
    Cкачать фильм Sex Trap бесплатно
    Sex Trap скачать торрент в хорошем качестве
    Sex Trap смотреть онлайн бесплатно в хорошем качестве
    Вы можете начинать темы
    Вы можете отвечать на сообщения
    Вы не можете редактировать свои сообщения
    Вы не можете удалять свои сообщения
    Вы не можете голосовать в опросах
    Вы не можете прикреплять файлы к сообщениям
    Вы можете скачивать файлы
    Sex Trap / В паутине секса / Сексуальная ловушка / Секс-Ловушка [2008 г., Feature, DVD9] DVO picoco.icu